Pronóstico del tiempo para hoy en Lima | Modern Education - 4193 Words | Bollywood Movies Online

Movies - Other

The greatest showman 2017 HDTS AC3

  • Download 5x Faster
  • Download torrent
  • Direct Download
  • Rate this torrent +  |  -
The greatest showman 2017 HDTS AC3

Download FREE And Anonymously


Torrent info

Name:The greatest showman 2017 HDTS AC3

Total Size: 1.00 GB

Magnet: Magnet Link

Seeds: 21

Leechers: 17

Stream: Watch Full Movie @ Movie4u

Last Updated: 2018-01-04 02:40:35 (Update Now)

Torrent added: 2018-01-03 11:40:42



VPN For Torrents

Torrent Files List


Sample.ts (Size: 1.00 GB) (Files: 2)

 Sample.ts

6.13 MB

 The.greatest.showman.2017.HDTS.AC3.mp4

1.00 GB
 

tracker

leech seeds
 

Torrent description

******************************Screenshots:********************

http://picserver4u.com/1091.html

http://picserver4u.com/1092.html

http://picserver4u.com/1093.html

http://picserver4u.com/1094.html

http://picserver4u.com/1095.html

**************************************************************

Complete name : The.greatest.showman.2017.HDTS.AC3
Format : MPEG-4
Format profile : Base Media
Codec ID : isom (isom/iso2/avc1/mp41)
File size : 1 021 MiB
Duration : 1 h 37 min
Overall bit rate : 1 469 kb/s
Writing application : Lavf57.56.101

Video
ID : 1
Format : AVC
Format/Info : Advanced Video Codec
Format profile : [emailprotected]
Format settings : CABAC / 4 Ref Frames
Format settings, CABAC : Yes
Format settings, RefFrames : 4 frames
Codec ID : avc1
Codec ID/Info : Advanced Video Coding
Duration : 1 h 37 min
Bit rate : 1 200 kb/s
Width : 720 pixels
Height : 304 pixels
Display aspect ratio : 2.35:1
Frame rate mode : Constant
Frame rate : 23.976 (23976/1000) FPS
Color space : YUV
Chroma subsampling : 4:2:0
Bit depth : 8 bits
Scan type : Progressive
Bits/(Pixel*Frame) : 0.229
Stream size : 840 MiB (82%)


Audio
ID : 2
Format : AC-3
Format/Info : Audio Coding 3
Codec ID : ac-3
Duration : 1 h 37 min
Bit rate mode : Constant
Bit rate : 256 kb/s
Channel(s) : 2 channels
Channel positions : Front: L R
Sampling rate : 48.0 kHz
Frame rate : 31.250 FPS (1536 SPF)
Bit depth : 16 bits
Compression mode : Lossy
Stream size : 178 MiB (17%)
Service kind : Complete Main
Default : Yes
Alternate group : 1

related torrents

Torrent name

health leech seeds Size
 


comments (0)

Main Menu